star wars episodio 7 hd latino

 

 

 

 

Aciune, aventuri, fantastic. Director: Richard Marquand. Starring: Adam Bareham, Alan Bennett, Alec Guinness and others. In acest al saselea episod al seriei science-fiction, Intoarcerea lui Jedi cei trei neinfricati razboinici ai spatiului cosmic, Luke Skywalker (Mark Hamill), Printesa Leia (Carrie Fisher) Details for this torrent. Star Wars [Episode 1-6][12xDV9][NTSC].star wars dvdfull boxset quiensabe007 latino guerra de las galaxias mexico coleccion ciencia ficcion sci fi. 1:46:17Star Wars: Episode III - Revenge of the Sith FULLM.o.V.i.EHD 1:46:17 Star Wars: Episode I - The Phantom Menace FULLM.o.V.i.EHD 1:50OnlineGratisencastellano2017 2:01:07Rogue One: A Star Wars Story FULLM.

o.V.i.E2016 HD 2:01:07Star Wars: Episode III Revenge of the Sith [HD-720p CC] SERVER 3. [Quality-DVD]. Official Trailer Star Wars 1 Star Wars 2 Star Wars 3 Star Wars 4 Star Wars 5 Star Wars 6 Star Wars 7 Star Wars 8. Drama, Romance. Runtime: 130 min. HD.You May Like Movies Drama. HD. 2016. Southside With You. 30 years after the defeat of Darth Vader and the Empire, Rey, a scavenger from the planet Jakku, finds a BB-8 droid that knows the whereabouts of the long Vidio is sharing website on which users can upload, share and view videos Storyline: Part IV in a George Lucas epic, Star Wars: A New Hope opens with a rebel ship being boarded by the tyrannical Darth Vader.YOU ARE WATCHING: Star Wars: Episode 4 - A New Hope. Stream in HD.

Star Wars: Episode 5 - The Empire Strikes Back. Watch Star Wars Episode VII the force awakens Online Free Our site is reliable for watching online Star Wars Episode VII the force awakens on your computer in high definition quality without having to spend a dime for this very cheap, not as expensive as you think. Watch Trailer. After destroying the Death Star space station, Luke escapes with his companions. Rebels stationed in Hoth, while Luke and his robot R2-D2 are looking to the planet Dagobah to find the Master Jedi Yoda.IMDb: 6.4 HD. The Dogs of War. Star Wars: The Last Jedi.Star Wars: Episode 3 - Revenge Of The Sith. Similar to the Star Wars: Episode VII - The Force Awakens movie online.being a 75 year old little boy, these movies appeal to me. a great fil as all star war films are. noiw eagerly waiting for the last jedi. Saga Star Wars audio espanol latino [1080p] » video movie hd.Star.Wars.Episode.VII.The.Force.Awakens.2015.BDRip.LATiNO.XviD » video. 2 years699 MB63. Star Wars: The Force Awakens with classical Latin subtitles.Star Wars: The Force Awakens Japanese TRAILER (2015) - Star Wars Movie HD - Duration: 1:53. Movieclips Coming Soon 3,125,799 views. Action, adventure, science fiction. Director: Rian Johnson. Starring: Mark Hamill, Carrie Fisher, Daisy Ridley and others. Rey joins the Jedi world and embarks on a journey with Luke Skywalker, Princess Leia, Poe and Finn. Darth Vader and the Empire are building a new, indestructible Death Star. Meanwhile, Han Solo has been imprisoned, and Luke Skywalker has sent R2-D2 and STAR WARS NEWS - Star Wars: Episode VII: The Force Awakens - Character Names Revealed (2015) - J.J. Abrams Movie.STAR WARS EPISODIO VII Teaser Subtitulado Espaol Latino 2015 HD. Part IV in George Lucas epic, Star Wars: A New Hope opens with a Rebel ship being boarded by the tyrannical Darth Vader. The plot then follows the life of Action, adventure, science fiction. Director: George Lucas. Starring: Al Lampert, Alan Harris, Alec Guinness and others. Princess Leia is captured and held hostage by the evil Imperial forces in their effort to take over the galactic Empire. Genero. Titulo original. Star Wars.Text 2 ID : 5 Format : PGS Muxing mode : zlib Codec ID : SHDMV/PGS Codec ID/Info : Picture based subtitle format used on BDs/ HD-DVDs Language : English Default : No Forced : No Statistics TagsLa suerte de los Logan (2017) Full 1080p Latino-Ingles. After rescuing Han Solo from the palace of Jabba the Hutt, the rebels attempt to destroy the second Death Star, while Luke struggles to make Vader return from the dark side of the Force.Star Wars: The Last Jedi (2017).HD. MegaShare7 - Watch Free Movies Online 2017 Full HD. Watch "Star Wars: Episode IV A New Hope (1977)" in FULL HD 1080p. Watch Star Wars: Episode VIII (2017) Full Movie Online Free | Putlockers. solarmovie 7k.live.

HD.Star Wars: Episodio VII El despertar de la fuerza PelisLatino24- Pelis Latino 24 peliculas latino 2017. mode : Lossy Stream size : 443 MiB (9) Title : Latino Language : Latin Default : Yes Forced : No.Star.Wars.Episode.VII.The.Force.Awakens.2015.1080p.BluRay.x264.DTS-JYK posted in movies > action. You May Also Like. HD.HD. Deep Gold. Putlocker[Watch].!The Flash Season 4 Episode 14 Online . Full Tv Show. HD High Definition: seeds.star wars episode 2 [spanish latino] source. 0. 700 MB. Star Wars: Episode IV - A New Hope 25 May 1977.Star Wars: Episode VII The Force Awakens 2015. rapidvideo. HD 720p.Nonton Star Wars: Episode IV A New Hope (1977) Film Subtitle Indonesia Streaming Movie Download. Action, Adventure, Fantasy, Usa, BluRay, 1977 The First Order attempts to rule the galaxy and only a ragtag group of heroes can stop them, along with the help of the Resistance. On Gomovies - watch Star Wars Episode VII The Force Awakens in HD 1080p with high speed link. Ver Rock The Kasbah 2015 Online HD Espaol Latino. Watch Woman In Gold 2015 online free full movie an.Ver San Andreas 2015 Online HD Espaol Latino. Ver Pelicula Insidious: Chapter 3 2015 Online Grat. hate it the more i see it thanks Disney!if you wonted people to feel how they did back in 1977 instead of making/rushing this piece of shit you should of released the originals with han shoting first! IN HD!!!!!but no we get this shit instead fuck y. Star War The Third Gathers: Backstroke of the West (HD w/ Subtitles).A comparison video comparing all changes added into Star Wars Episode IV: A New Hope from 1981 to this very day.Star Wars Episodio IV Una nueva esperanza en espaol latino 1977. WatchFree - watch Full HD 1080p Star Wars: Episode VII - The Force Awakens on watchfree.to Three decades after the defeat of the Galactic Empire, a new threat arises. The First Order attempts to rule. 6.5 136 min/episode. Two Jedi Knights escape a hostile blockade to find allies and come across a young boy who may bring balance to the Force, but the long dormant Sith resurface to reclaim their old glory.Rating: 6.5. Release: 1999. Quanlity: HD. quality cam x264 web-dl hd fullhd.Complete name : /home/zeiz/files/Star Wars - Episode VII - The Force Awakens (2015)Channel positions : Front: L C R, Side: L R, LFE Sampling rate : 48.0 KHz Bit depth : 16 bits Compression mode : Lossy Stream size : 443 MiB (9) Title : Latino Language : Latin For best streaming experience please use Google Chrome. If you have issues with the player, try switching to " HD 2" player (below the movie, where available). 8.4 132 min/episode. Darth Vader and the Empire are building a new, indestructible Death Star. Meanwhile, Han Solo has been imprisoned, R2-D2 and C-3PO have been sent to try and free him.Download in HD. Loading You might also like this movies. Magnum, P.I. - Season 7. eps. Yes, Star Wars: Episode VII is really the greatest film in Adventure genre in 2015. Such actors like Carrie Fisher, Mark Hamill, Harrison Ford made this fantastic film even better. Film duration is 90 minutes. Star Wars Episode VII The Force Awakens Star Wars Blm VII G Uyanyor (2015) 1080p BluRay x264 DUAL DTS HD MA 7 1 HDTURK mkv.Dragon Wars (D Wars) 2007 DVD Rip Xvid Mp3 latino [www BajandoEstrenos com] avi. You May Also Like. EP 7 HD.HD. Toggle navigation. Subtitles for YIFY movie Star Wars: Episode VII - The Force Awakens. Language. Set favourite(s). Login. Home. The first wave of casting confirmation for "Star Wars Episode VII" has hit the web! From John Boyega to Max Von Sydow, we are heading back to a galaxy far, far away! Fan reactions range from run of the mill Star Wars fanboyism Star Wars Episode VII The Force Awakens (2015) 1080p-H264-AAC Torrent sites: 2, Tags: HD, Movies, Video. All Music Audio books Sound clips FLAC Other Movies Movies DVDR Music videos Movie clips TV shows Handheld HD - Movies HD - TV shows 3D Other Windows Mac UNIX Handheld IOS (iPad/iPhone) Android Other OSStar Wars Episodio VI. Source : Blu Ray. Diseada para AppleTV 3. Star Wars Episode 1, 2, 3, 4, 5, 6 7 Trailers HD (1977 - 2015). Descargar TODAS las peliculas de STAR WARS | mkv 1080p Latino.Descargar STAR WARS I, II, III, IV, V, y VI 1080p HD Audio Espaol ( Latino). How Darth Vader Killed So Many Jedi - Star Wars Explained. Watch HD Movies Online Free.Close to the top of the Clone Wars, Darth Sidious has revealed himself and is able to execute the final a part of his plan to rule the galaxy. YOU ARE WATCHING: Star Wars: Episode 6 - Return Of The Jedi. The video keeps buffering? Just pause it for 5-10 minutes then continue playing! Yes, Star Wars: Episode VII is one of the greatest film in Adventure genre in 2015. Such actors like Carrie Fisher, Harrison Ford, Mark Hamill made this amazing film even better. Movie duration is 90 minutes.

related posts


Copyright ©